#TITLE:BLAHBLAHBLAH;
#SUBTITLE:;
#ARTIST:Unknown artist;
#TITLETRANSLIT:;
#SUBTITLETRANSLIT:;
#ARTISTTRANSLIT:;
#CREDIT:;
#BANNER:;
#BACKGROUND:;
#LYRICSPATH:;
#CDTITLE:;
#MUSIC:BLAHBLAHBLAH.mp3;
#OFFSET:0.000;
#SAMPLESTART:7.130;
#SAMPLELENGTH:12.000;
#SELECTABLE:YES;
#BPMS:0.000=168.300;
#STOPS:;
#BGCHANGES:;
// cache tags:
#FIRSTBEAT:9.250;
#LASTBEAT:57.000;
#SONGFILENAME:Songs/Music V.I.P ^_^/BLAHBLAHBLAH/BLAHBLAHBLAH.sm;
#HASMUSIC:1;
#HASBANNER:0;
#MUSICLENGTH:23.902;
// end cache tags

//---------------dance-single - ----------------
#NOTES:
     dance-single:
     :
     Challenge:
     1:
     1.000,1.000,1.000,1.000,1.000,665.000,278.000,350.000,0.000,229.000:
0000
0000
0000
0000
,
0000
0000
0000
0000
,
0000
0000
0000
0000
0000
0000
0000
0000
0000
0000
0000
0000
0000
0000
0000
0000
0000
0000
0000
0000
1000
0100
0010
0001
1000
0100
0010
0001
1000
0100
0010
0001
1000
0100
0010
0001
1000
0100
1000
0100
0010
0001
0010
0001
0001
0010
0100
1000
0120
0031
2111
3220
0332
0003
0021
2231
3301
1110
1100
1100
1102
0023
0031
2221
,
3331
0002
0003
0000
0211
2301
0120
3230
0300
0000
1021
1130
0020
0030
0000
1120
1131
0020
0130
0100
1102
1123
1030
0201
0300
1101
0000
2220
3331
1112
1103
0001
2220
3330
1102
1103
0201
0300
1011
1110
1102
2003
3000
0001
0010
0100
1000
1200
0320
0030
0002
1113
2220
3331
0001
0111
0000
0002
0023
2030
3000
0022
0030
0003
,
0010
0100
2000
3200
0320
0000
0030
0000
0000
0002
0003
0002
0000
0023
0032
0023
0032
0023
0030
0012
0023
0032
0023
0032
0023
0032
0023
0002
0233
0320
0230
0310
0200
0320
0230
0310
0200
0320
0030
0020
0230
0310
0020
0230
0310
0020
2030
3000
1000
1000
0000
0000
2200
3300
1000
2200
3300
1100
2200
3300
0000
0200
2300
3000
,
0200
2300
3200
2300
3200
2300
3200
0300
2100
3200
2300
3000
2200
3300
0100
0010
0001
0010
0100
1000
0100
0010
0001
0010
0100
1000
0100
0010
0001
0020
0130
1000
0100
0010
0001
0010
0100
1000
0200
0312
0003
0100
1000
0100
0010
0001
0010
0100
1000
0100
0010
0001
0000
0001
0010
1110
2202
3300
1110
1110
1110
1110
1120
1100
,
1100
1100
1103
1100
1100
1101
1101
1101
1101
1101
1101
0001
0001
2201
3001
1031
1000
1011
1011
1011
1011
1011
1011
1011
1011
1011
1311
1001
1011
1012
1103
1121
0230
2300
3200
0320
0032
0003
0000
0110
0020
2030
3020
0030
0100
1000
0100
0010
0012
0003
0001
0021
2230
3300
1100
1112
0003
2210
3312
0003
2210
3320
0132
0003
,
1100
0112
0003
1110
0112
0003
2200
3300
0020
0031
2201
3300
0020
0032
0223
1330
1120
0032
0003
2110
3220
0331
0221
2330
3020
0031
0002
0213
1300
0012
0003
2200
3320
0031
2211
3300
0120
0032
0023
1130
1112
2223
3331
0021
1132
1113
2220
3331
0002
0103
2210
0300
3010
0002
0023
0230
0300
2000
3000
0200
0300
0000
0010
0010
,
0001
0001
0001
0001
0001
0001
0001
0001
0001
0001
0010
0010
0010
0010
0010
0010
0010
0010
0010
0010
0010
0100
0100
0100
0100
0100
0100
0100
0100
0100
0100
0100
0100
0100
0100
1000
2000
3200
0300
0020
0030
0002
0003
1100
0221
0332
0203
0300
1120
0031
0021
1030
1020
0032
0003
0210
2300
3020
0031
0002
0113
0210
0310
1000
,
1000
1020
0031
0021
0030
0000
0012
0023
2231
3311
0011
1112
1113
2220
3331
1112
1113
0000
2100
3200
0301
0012
1113
1100
0110
0002
2023
0130
3200
0301
1110
2201
3311
1102
0113
0000
2220
0330
3020
0032
0023
1130
2200
3301
0002
1113
2220
3331
1002
1103
1100
1111
0000
0211
2300
3020
0032
0003
2110
3001
0021
1130
1112
0003
,
2211
0300
3001
1111
1112
1113
0000
0100
2110
3001
0100
1000
0011
0000
2100
3020
0032
0023
0130
1000
0100
0010
0001
0001
1100
1010
0011
0110
1100
0110
0011
1100
0011
1100
0011
1100
0011
0001
0112
0113
1110
2220
3331
0001
1111
1111
1111
1111
1111
1111
1110
1110
1110
1110
2220
3331
0001
1112
1113
2220
3331
0011
0001
1102
,
1103
1110
0102
2203
3321
1032
1113
1110
1100
0211
1300
0001
0010
0100
1000
0020
0030
0001
2110
3200
0310
0001
0022
2233
3300
0020
0031
0002
1113
0221
0330
2221
3331
0002
0023
2130
3220
0330
0001
0001
0111
1111
0111
1111
1111
1111
1111
1111
1111
1111
1111
2000
3001
1100
0111
0122
2233
3300
2000
3000
0111
1011
0001
0001
,
0112
1113
0220
0331
1102
1113
2220
3331
0021
0031
0021
2130
3000
2000
3200
0300
0000
0020
0032
0023
0130
2100
3100
0000
0012
0003
0201
1300
0000
0120
2030
3000
0100
0010
0111
0110
0001
0010
0001
0010
0001
0010
0001
0010
0001
0010
0001
0010
0001
0012
0003
0010
0001
0001
1000
0001
1000
0001
1000
0001
1000
0001
1000
0001
,
1000
0000
0000
0001
0000
0000
1000
0000
0000
0001
0000
0000
1000
0000
0000
0001
0000
0000
1000
0000
0000
0001
0000
0000
1000
0000
0000
0001
0000
0000
1000
0000
0000
0001
0000
0000
1000
0000
0000
0001
0000
0000
1000
0000
0000
0001
0000
0000
1000
0000
0000
0001
0000
0000
1000
0000
0000
1001
0000
0000
1000
0000
0000
0100
0000
0000
1000
0000
0000
0100
0000
0000
1000
0000
0000
0100
0000
0000
1100
0000
0000
0210
0000
0000
2300
0000
0000
3000
0000
0000
0200
0000
0000
0320
0000
0000
0030
0000
0000
2110
0000
0000
3020
0000
0000
1132
0000
0000
0003
0000
0000
2211
0000
0000
3320
0000
0000
0031
0000
0000
2221
0000
0000
3330
0000
0000
0012
0000
0000
0023
0000
0000
2130
0000
0000
3200
0000
0000
0320
0000
0000
0032
0000
0000
0003
0000
0000
0110
0000
0000
1111
0000
1110
0000
0000
0000
2210
0000
0000
0000
3300
0000
0000
0000
0010
0000
0000
0000
0001
0000
0000
2111
0000
0000
3102
0000
0000
1113
0000
0000
2220
0000
0000
3331
0000
0000
1001
0000
0000
1112
0000
0000
,
1113
2220
3331
0001
2222
3333
0000
1111
1111
2222
3333
2221
3331
0000
1110
1111
0110
0000
0000
0000
0000
0000
0000
0000
0000
0000
0000
0000
0000
0000
0000
0000
0000
0000
0000
0000
0000
0000
0000
0000
0000
0000
0000
0000
0000
0000
0000
0000
0000
0000
0000
0000
0000
0000
0000
0000
0000
0000
0000
0000
0000
0000
0000
0000
;
